<?xml version="1.0" standalone="no"?>
<!DOCTYPE svg PUBLIC "-//W3C//DTD SVG 1.1//EN" "http://www.w3.org/Graphics/SVG/1.1/DTD/svg11.dtd">
<svg xmlns="http://www.w3.org/2000/svg">
<defs >
<font id="SourceCodePro" horiz-adv-x="600" ><font-face
    font-family="Source Code Pro"
    units-per-em="1000"
    panose-1="2 11 5 9 3 4 3 9 2 4"
    ascent="984"
    descent="-273"
    alphabetic="0" />
<glyph unicode=" " glyph-name="space" />
<glyph unicode="!" glyph-name="exclam" d="M259 232L316 576L332 671H413L394 576L312 232H259ZM242 -12Q216 -12 200 5T183 50Q183 85 207 111T266 137Q292 137 308 120T324 75Q324 40 301 14T242 -12Z" />
<glyph unicode="&quot;" glyph-name="quotedbl" d="M428 358L449 581L469 687H572L550 581L480 358H428ZM401 358L422 581L442 687H545L523 581L453 358H401Z" />
<glyph unicode="#" glyph-name="numbersign" d="M273 0L336 205H193L129 0H78L142 205H64L78 256H158L207 414H123L137 465H223L281 650H332L274 465H416L473 650H524L467 465H549L534 414H451L403 256H490L476 205H387L324 0H273ZM352 256L400 414H258L209 256H352Z" />
<glyph unicode="$" glyph-name="dollar" d="M191 -110L221 39Q163 50 122 78T56 136L105 182Q118 167 134 152T172 124T219 105T278 97Q335 97 371 120T407 189Q407 208 398 223T373 252T334 277T283 303Q251 319 225 335T181 369T152 411T142 465Q142 505 156
533T196 581T255 609T328 618L353 748H409L382 612Q430 601 466 574T523 521L475 479Q449 511 412 533T327 555Q279 555 248 535T216 474Q216 439 243 415T329 363Q360 348 388 332T437 297T470 254T482 197Q482 154 465 123T420 73T354 44T276 34L247 -110H191Z"
/>
<glyph unicode="%" glyph-name="percent" d="M108 321Q58 321 25 354T-8 448Q-8 491 5 528T43 592T99 634T167 650Q217 650 250 617T283 523Q283 480 270 443T232 379T176 337T108 321ZM117 368Q138 368 157 379T191 411T215 458T224 518Q224 561 207 582T159
603Q138 603 119 592T84 560T60 513T51 453Q51 411 68 390T117 368ZM8 29L-28 72L192 262L217 233L8 29ZM393 390L368 418L576 621L613 578L393 390ZM375 -12Q325 -12 292 21T259 115Q259 158 272 195T310 259T366 301T434 317Q484 317 517 284T550 190Q550 147
537 110T499 46T443 4T375 -12ZM384 35Q405 35 424 46T458 78T482 125T491 185Q491 228 474 249T426 270Q405 270 386 259T351 227T327 180T318 120Q318 78 335 57T384 35Z" />
<glyph unicode="&amp;" glyph-name="ampersand" d="M182 -12Q109 -12 64 28T19 139Q19 178 32 210T69 268T121 316T182 358Q162 421 162 476Q162 518 175 553T212 613T267 653T335 668Q389 668 416 638T443 561Q443 521 427 490T386 432T328 382T261 338Q282 287
314 239T384 151Q422 193 452 242T506 349H577Q546 281 509 222T426 111Q454 88 482 73T532 50L501 -12Q472 -2 440 16T375 61Q333 26 285 7T182 -12ZM229 480Q229 438 241 395Q269 412 294 430T339 467T369 509T380 558Q380 581 369 597T331 614Q310 614 291 604T259
576T237 534T229 480ZM196 49Q229 49 264 63T332 102Q294 144 261 195T203 301Q180 285 161 269T126 234T103 194T94 149Q94 101 122 75T196 49Z" />
<glyph unicode="&apos;" glyph-name="quotesingle" d="M286 358L307 581L327 687H430L408 581L338 358H286Z" />
<glyph unicode="(" glyph-name="parenleft" d="M344 -176Q275 -113 236 -21T197 183Q197 273 219 353T284 502T387 629T524 734L560 687Q406 586 336 460T266 185Q266 89 298 9T396 -135L344 -176Z" />
<glyph unicode=")" glyph-name="parenright" d="M73 -185L36 -138Q191 -37 259 89T328 363Q328 461 297 540T199 685L248 724Q318 661 357 569T397 365Q397 275 375 195T311 46T209 -81T73 -185Z" />
<glyph unicode="*" glyph-name="asterisk" d="M143 118L109 147L242 309L101 381L123 421L276 368L322 549H368L344 365L515 420L527 378L354 303L431 135L389 111L294 268L143 118Z" />
<glyph unicode="+" glyph-name="plus" d="M269 105V301H87V359H269V555H331V359H513V301H331V105H269Z" />
<glyph unicode="," glyph-name="comma" d="M105 -203L94 -158Q163 -138 206 -96T260 1Q250 -1 245 -1Q219 -1 202 16T185 63Q185 99 211 124T273 150Q305 150 323 127T341 60Q341 12 324 -30T275 -107T200 -165T105 -203Z" />
<glyph unicode="-" glyph-name="hyphen" d="M87 301V359H513V301H87Z" />
<glyph unicode="." glyph-name="period" d="M239 -12Q210 -12 193 7T176 56Q176 75 183 92T202 122T230 143T266 151Q295 151 312 132T329 82Q329 64 322 47T303 17T275 -4T239 -12Z" />
<glyph unicode="/" glyph-name="slash" d="M12 -160L513 710H585L84 -160H12Z" />
<glyph unicode="0" glyph-name="zero" d="M253 -12Q207 -12 171 5T110 55T72 133T59 234Q59 307 78 381T133 515T224 612T349 650Q395 650 431 632T492 582T530 504T543 402Q543 328 524 255T469 122T378 25T253 -12ZM260 49Q311 49 350 81T416 164T457 276T471
395Q471 484 440 536T343 588Q292 588 253 556T186 472T145 360T131 242Q131 152 162 101T260 49ZM296 260Q273 260 260 275T246 316Q246 332 251 346T265 371T285 388T310 395Q333 395 346 380T360 339Q360 323 355 309T341 284T321 267T296 260Z" />
<glyph unicode="1" glyph-name="one" d="M39 0L53 64H236L332 542H191L201 592Q254 598 296 609T370 638H428L312 64H483L471 0H39Z" />
<glyph unicode="2" glyph-name="two" d="M37 0L44 46Q139 125 210 186T329 299T401 394T425 484Q425 532 400 559T319 587Q274 587 234 564T158 502L117 548Q159 592 212 621T331 650Q411 650 455 607T500 491Q500 440 477 392T410 294T304 187T162 62Q197 65
224 65T282 66H496L484 0H37Z" />
<glyph unicode="3" glyph-name="three" d="M247 -12Q171 -12 118 19T30 96L80 137Q105 104 146 78T248 52Q281 52 310 60T361 85T395 125T408 180Q408 235 363 267T207 301L217 359Q277 359 319 369T387 398T426 440T438 494Q438 539 408 563T327 587Q282 587
245 570T175 526L138 574Q179 608 229 629T339 650Q378 650 410 641T466 613T503 569T516 508Q516 441 477 396T350 330V327Q417 311 450 274T484 183Q484 135 466 99T416 38T341 1T247 -12Z" />
<glyph unicode="4" glyph-name="four" d="M318 0L353 178H20L30 229L434 638H516L437 240H537L524 178H424L389 0H318ZM122 240H365L406 448Q412 476 418 504T432 559H429Q409 536 389 513T348 466L122 240Z" />
<glyph unicode="5" glyph-name="five" d="M243 -12Q168 -12 113 19T23 96L73 138Q99 103 142 78T245 52Q279 52 310 63T367 95T407 147T422 220Q422 281 389 312T296 343Q252 343 220 332T148 301L113 328L188 638H538L526 572H243L193 372Q222 384 252 393T322
402Q360 402 392 392T448 362T485 309T499 233Q499 175 478 130T422 53T340 5T243 -12Z" />
<glyph unicode="6" glyph-name="six" d="M273 -12Q227 -12 189 4T124 51T81 123T65 219Q65 325 92 406T164 541T268 622T390 650Q447 650 490 626T557 565L507 524Q482 558 453 572T385 586Q346 586 307 569T234 517T176 427T142 299Q177 341 228 368T338 396Q372
396 402 387T456 357T494 305T508 228Q508 178 491 135T442 59T367 7T273 -12ZM278 48Q314 48 343 62T393 101T425 155T437 219Q437 250 428 273T402 311T365 333T320 340Q220 340 137 239V217Q137 135 177 92T278 48Z" />
<glyph unicode="7" glyph-name="seven" d="M154 0Q177 96 205 174T271 320T358 449T472 572H114L127 638H578L568 589Q490 516 438 452T348 319T286 174T237 0H154Z" />
<glyph unicode="8" glyph-name="eight" d="M264 -12Q221 -12 184 -2T120 29T78 80T63 149Q63 221 106 267T221 343V347Q189 378 172 408T154 480Q154 520 169 552T212 605T277 638T356 650Q392 650 423 641T478 613T516 568T530 505Q530 440 496 396T402 321V317Q415
308 431 295T461 265T484 225T493 174Q493 131 476 97T429 38T356 1T264 -12ZM358 343Q405 368 434 406T463 493Q463 541 431 566T350 592Q324 592 301 585T261 565T234 531T223 485Q223 460 234 440T264 402T307 370T358 343ZM268 46Q298 46 326 53T375 75T409
112T422 164Q422 191 408 212T371 252T319 285T259 318Q202 289 167 252T132 162Q132 133 143 112T173 76T216 54T268 46Z" />
<glyph unicode="9" glyph-name="nine" d="M281 298Q331 298 377 323T464 399V421Q464 503 424 546T324 590Q288 590 259 576T208 537T176 483T164 419Q164 387 173 365T199 327T236 305T281 298ZM212 -12Q154 -12 112 12T44 73L95 114Q119 80 149 66T217 52Q256
52 295 69T367 121T425 209T459 337Q424 296 372 269T263 242Q230 242 199 251T145 281T107 333T93 410Q93 459 110 503T159 579T234 631T328 650Q374 650 412 634T478 587T521 515T536 419Q536 312 509 232T437 97T334 16T212 -12Z" />
<glyph unicode=":" glyph-name="colon" d="M309 346Q280 346 263 365T246 414Q246 433 253 450T272 480T300 501T336 509Q365 509 382 490T399 440Q399 422 392 405T373 375T345 354T309 346ZM239 -12Q210 -12 193 7T176 56Q176 75 183 92T202 122T230 143T266
151Q295 151 312 132T329 82Q329 64 322 47T303 17T275 -4T239 -12Z" />
<glyph unicode=";" glyph-name="semicolon" d="M309 346Q280 346 263 365T246 414Q246 433 253 450T272 480T300 501T336 509Q365 509 382 490T399 440Q399 422 392 405T373 375T345 354T309 346ZM105 -203L94 -158Q163 -138 206 -96T260 1Q250 -1 245 -1Q219
-1 202 16T185 63Q185 99 211 124T273 150Q305 150 323 127T341 60Q341 12 324 -30T275 -107T200 -165T105 -203Z" />
<glyph unicode="&lt;" glyph-name="less" d="M493 49L121 302V362L493 615V539L188 334V330L493 125V49Z" />
<glyph unicode="=" glyph-name="equal" d="M87 408V466H513V408H87ZM87 451V509H513V451H87Z" />
<glyph unicode="&gt;" glyph-name="greater" d="M107 49V125L412 330V334L107 539V615L479 362V302L107 49Z" />
<glyph unicode="?" glyph-name="question" d="M226 232Q226 265 237 291T265 340T303 380T347 415Q366 430 383 444T414 472T434 503T442 540Q442 574 421 596T353 618Q310 618 279 600T217 549L174 588Q210 631 257 656T366 682Q437 682 478 648T519 556Q519
523 508 498T478 451T437 412T391 376Q370 359 352 344T321 313T300 277T291 232H226ZM223 -12Q197 -12 181 5T164 50Q164 85 188 111T247 137Q273 137 289 120T305 75Q305 40 282 14T223 -12Z" />
<glyph unicode="@" glyph-name="at" d="M273 -144Q217 -144 172 -125T94 -68T44 24T26 150Q26 261 56 350T137 503T254 601T393 635Q486 635 528 592T571 470Q571 451 569 434T563 396L504 100H459L464 159H460Q431 129 396 109T318 88Q272 88 239 114T206 191Q206
277 279 323T506 386Q512 412 514 429T517 461Q517 489 511 511T489 550T448 575T387 584Q332 584 278 554T181 469T112 334T85 158Q85 98 99 52T139 -27T201 -75T281 -92Q320 -92 352 -79T415 -44L440 -88Q407 -113 365 -128T273 -144ZM338 140Q368 140 399 157T467
209L494 340Q373 323 320 290T267 204Q267 172 287 156T338 140Z" />
<glyph unicode="A" glyph-name="A" d="M256 379L198 265H397L386 377Q381 430 376 484T366 591H362Q334 537 309 486T256 379ZM-23 0L333 656H422L503 0H423L403 205H167L62 0H-23Z" />
<glyph unicode="B" glyph-name="B" d="M41 0L173 656H343Q442 656 494 620T547 511Q547 478 535 451T501 402T454 367T400 347V343Q425 337 447 326T485 299T510 260T520 210Q520 155 500 116T443 51T356 13T248 0H41ZM194 378H284Q378 378 422 411T467 500Q467
545 435 567T324 590H238L194 378ZM132 66H242Q288 66 325 73T389 97T430 141T444 206Q444 256 406 284T294 312H182L132 66Z" />
<glyph unicode="C" glyph-name="C" d="M310 -12Q254 -12 211 7T138 62T93 145T77 253Q77 330 101 404T170 537T277 632T416 668Q473 668 513 641T578 571L523 530Q503 563 477 582T412 601Q353 601 306 570T226 490T175 381T157 260Q157 215 166 178T196 113T248
71T324 55Q362 55 396 71T463 114L499 64Q462 32 416 10T310 -12Z" />
<glyph unicode="D" glyph-name="D" d="M22 0L153 656H284Q418 656 487 590T557 400Q557 311 533 237T462 111T350 29T199 0H22ZM112 64H199Q264 64 315 87T403 154T458 258T477 395Q477 490 428 541T281 593H218L112 64Z" />
<glyph unicode="E" glyph-name="E" d="M60 0L192 656H595L582 591H255L213 378H486L473 312H201L150 66H486L473 0H60Z" />
<glyph unicode="F" glyph-name="F" d="M79 0L210 656H609L595 591H274L229 363H497L483 297H217L157 0H79Z" />
<glyph unicode="G" glyph-name="G" d="M300 -12Q241 -12 197 7T122 60T77 144T61 253Q61 331 85 405T154 538T262 632T406 668Q465 668 505 641T571 571L516 530Q497 562 470 581T401 601Q340 601 292 570T211 490T159 381T141 260Q141 216 150 179T180 113T232
70T311 54Q347 54 375 65T423 94L459 275H324L337 339H543L486 55Q450 25 404 7T300 -12Z" />
<glyph unicode="H" glyph-name="H" d="M18 0L149 656H227L171 379H455L510 656H588L457 0H379L442 312H158L96 0H18Z" />
<glyph unicode="I" glyph-name="I" d="M35 0L49 66H211L316 591H152L167 656H573L559 591H394L288 66H454L439 0H35Z" />
<glyph unicode="J" glyph-name="J" d="M209 -12Q175 -12 147 -4T95 18T54 50T23 90L75 136Q98 99 131 77T212 55Q282 55 321 97T377 227L450 591H175L188 656H540L451 211Q429 104 372 46T209 -12Z" />
<glyph unicode="K" glyph-name="K" d="M618 656L346 391L519 0H432L288 334L162 212L119 0H42L173 656H251L182 319H186L530 656H618Z" />
<glyph unicode="L" glyph-name="L" d="M99 0L230 656H308L190 66H515L502 0H99Z" />
<glyph unicode="M" glyph-name="M" d="M15 0L146 656H240L278 359L284 262H288L332 358L496 656H589L459 0H386L464 386Q468 405 474 428T486 476T500 524T513 568H509Q505 560 497 544T480 510T461 474T444 441L304 178H240L206 436Q205 444 203 462T199 501T195
540T192 568H188Q186 546 184 522T178 474T172 429T166 394L86 0H15Z" />
<glyph unicode="N" glyph-name="N" d="M25 0L156 656H235L369 234L406 99H410Q416 148 424 203T440 301L510 656H584L453 0H375L240 422L203 558H199Q192 508 185 454T168 351L99 0H25Z" />
<glyph unicode="O" glyph-name="O" d="M254 -12Q204 -12 165 6T98 59T56 141T41 247Q41 325 63 401T125 536T224 631T355 668Q405 668 444 650T511 597T552 515T567 409Q567 331 546 256T484 121T385 25T254 -12ZM261 55Q315 55 357 87T428 170T472 285T488 413Q488
500 454 550T348 601Q294 601 252 569T181 486T136 372T120 244Q120 156 154 106T261 55Z" />
<glyph unicode="P" glyph-name="P" d="M52 0L183 656H366Q412 656 450 647T516 619T558 569T573 496Q573 436 552 392T493 320T403 278T287 264H182L129 0H52ZM195 327H287Q390 327 442 367T495 486Q495 543 458 568T346 594H247L195 327Z" />
<glyph unicode="Q" glyph-name="Q" d="M262 52Q315 52 357 84T428 167T472 283T488 413Q488 500 454 550T348 601Q294 601 252 569T181 486T136 372T120 244Q120 154 155 103T262 52ZM398 -164Q329 -164 278 -126T206 -7Q127 10 84 77T41 247Q41 325 63 401T125
536T224 631T355 668Q405 668 444 650T511 597T552 515T567 409Q567 335 548 263T492 133T402 36T283 -10Q296 -55 328 -77T406 -99Q432 -99 451 -96T486 -86L500 -147Q482 -155 456 -159T398 -164Z" />
<glyph unicode="R" glyph-name="R" d="M35 0L166 656H343Q389 656 427 648T492 621T535 573T550 501Q550 456 535 420T494 356T433 311T356 285L473 0H387L279 278H168L112 0H35ZM181 341H276Q370 341 420 382T471 493Q471 547 435 570T325 594H230L181 341Z" />
<glyph unicode="S" glyph-name="S" d="M261 -12Q182 -12 127 20T37 106L90 149Q120 104 162 80T261 55Q292 55 318 63T363 88T394 126T405 177Q405 215 383 240T324 287L248 332Q227 345 208 360T174 395T151 439T142 492Q142 529 157 561T198 617T262 654T343
668Q407 668 457 640T537 571L485 528Q461 558 425 580T339 602Q313 602 291 594T254 571T230 538T221 498Q221 460 243 436T298 394L377 347Q400 332 419 316T453 281T476 238T484 184Q484 138 467 102T419 40T349 2T261 -12Z" />
<glyph unicode="T" glyph-name="T" d="M198 0L316 589H98L111 656H625L611 589H393L276 0H198Z" />
<glyph unicode="U" glyph-name="U" d="M255 -12Q162 -12 113 41T64 186Q64 230 74 279L149 656H227L152 277Q147 254 144 234T141 195Q141 128 172 92T265 55Q293 55 318 65T365 98T404 159T432 252L512 656H588L506 244Q492 172 468 123T411 44T340 1T255 -12Z" />
<glyph unicode="V" glyph-name="V" d="M188 0L122 656H202L233 292Q238 238 241 184T250 76H254Q279 128 308 186T361 292L547 656H632L281 0H188Z" />
<glyph unicode="W" glyph-name="W" d="M54 0L94 657H168L134 204Q130 159 126 120T119 67H123Q126 74 133 94T150 136T167 179T179 206L298 474H364L383 250Q384 233 386 209T390 160T393 112T395 71H401Q402 78 406 97T416 139T427 181T434 209L568 657H642L438
0H342L324 266Q322 295 320 331T318 391H313Q305 367 293 331T268 266L154 0H54Z" />
<glyph unicode="X" glyph-name="X" d="M-4 0L257 344L130 657H214L282 485Q290 463 299 436T315 386H319Q327 398 336 412T354 439T371 464T384 484L516 657H602L351 332L487 0H403L331 182Q327 191 323 203T313 230T303 258T294 283H290Q271 256 253 229T219
181L82 0H-4Z" />
<glyph unicode="Y" glyph-name="Y" d="M199 0L246 229L109 657H189L250 455Q262 414 274 371T295 292H299Q309 308 321 328T347 369T375 413T404 455L544 657H626L321 221L276 0H199Z" />
<glyph unicode="Z" glyph-name="Z" d="M484 0H17L26 46L469 592H127L140 657H586L576 610L133 65H498L484 0Z" />
<glyph unicode="[" glyph-name="bracketleft" d="M127 -152L300 708H571L563 663H350L196 -107H408L400 -152H127Z" />
<glyph unicode="\" glyph-name="backslash" d="M344 -160L191 710H254L407 -160H344Z" />
<glyph unicode="]" glyph-name="bracketright" d="M15 -152L24 -107H237L390 663H178L187 708H459L287 -152H15Z" />
<glyph unicode="^" glyph-name="asciicircum" d="M113 285L266 670H334L487 285H419L351 465L302 597H298L249 465L181 285H113Z" />
<glyph unicode="_" glyph-name="underscore" d="M-28 -137L-15 -71H465L452 -137H-28Z" />
<glyph unicode="`" glyph-name="grave" d="M389 570L257 734L323 783L437 606L389 570Z" />
<glyph unicode="a" glyph-name="a" d="M219 -12Q143 -12 98 35T52 174Q52 239 73 298T130 401T214 472T319 498Q371 498 409 478T468 425H472L491 486H553L456 0H393L401 74H397Q359 35 313 12T219 -12ZM242 52Q282 52 325 76T409 146L454 362Q429 400 397 417T329
434Q287 434 251 414T189 359T147 280T131 186Q131 117 161 85T242 52Z" />
<glyph unicode="b" glyph-name="b" d="M270 -12Q222 -12 183 8T121 61H118L100 0H36L178 712H255L216 522L190 415H193Q230 449 276 473T370 498Q448 498 492 449T537 305Q537 239 517 181T461 81T376 13T270 -12ZM262 52Q304 52 340 71T402 124T443 201T458 294Q458
365 428 399T345 434Q308 434 264 410T181 340L137 122Q163 84 195 68T262 52Z" />
<glyph unicode="c" glyph-name="c" d="M291 -12Q243 -12 202 1T131 42T84 109T67 202Q67 268 91 322T156 416T250 476T360 498Q424 498 470 472T543 411L494 367Q467 401 433 417T350 434Q312 434 275 417T209 369T162 298T144 211Q144 171 156 141T189 92T238
62T301 52Q344 52 383 71T456 119L487 67Q449 32 398 10T291 -12Z" />
<glyph unicode="d" glyph-name="d" d="M218 -12Q143 -12 98 35T52 174Q52 239 73 298T130 401T214 472T319 498Q371 498 408 479T466 427H469L485 522L523 712H600L456 0H393L401 74H397Q359 35 313 12T218 -12ZM242 52Q282 52 325 76T409 146L453 362Q428 400
396 417T329 434Q287 434 251 414T189 359T147 280T131 186Q131 117 161 85T242 52Z" />
<glyph unicode="e" glyph-name="e" d="M270 -12Q175 -12 119 41T63 198Q63 264 85 319T146 413T235 475T340 498Q385 498 419 484T477 445T513 386T525 311Q525 285 521 260T512 224H140Q139 219 139 214T139 202Q139 128 179 89T285 49Q333 49 375 67T451 112L480
60Q443 31 389 10T270 -12ZM336 437Q308 437 280 427T228 396T183 348T152 284H450Q453 299 453 314Q453 371 422 404T336 437Z" />
<glyph unicode="f" glyph-name="f" d="M169 0L255 424H115L126 481L267 486L278 540Q298 637 352 680T489 724Q534 724 569 710T630 675L593 626Q570 643 546 652T491 662Q439 662 404 633T354 537L344 486H548L535 424H331L246 0H169Z" />
<glyph unicode="g" glyph-name="g" d="M201 -217Q141 -217 95 -200T16 -157L52 -102Q81 -128 121 -141T202 -154Q267 -154 315 -123T379 -21L401 82H397Q362 47 317 26T224 4Q146 4 101 51T55 186Q55 250 76 307T133 406T217 473T319 498Q371 498 409 478T468
425H472L492 486H553L451 -25Q441 -76 418 -112T362 -172T288 -206T201 -217ZM247 68Q287 68 329 90T409 154L453 361Q427 399 396 416T328 434Q289 434 254 415T192 364T150 288T134 198Q134 132 163 100T247 68Z" />
<glyph unicode="h" glyph-name="h" d="M36 0L178 712H255L202 450L186 389H190Q212 411 236 430T287 465T343 489T405 498Q470 498 500 465T530 377Q530 356 528 337T521 297L461 0H384L442 289Q451 326 451 357Q451 393 432 412T374 432Q325 432 276 401T175
314L112 0H36Z" />
<glyph unicode="i" glyph-name="i" d="M347 -12Q289 -12 253 19T216 110Q216 133 224 163L282 424H104L117 486H371L298 156Q296 147 295 140T294 124Q294 86 315 69T369 52Q392 52 414 59T462 78L480 20Q449 6 418 -3T347 -12ZM599 589Q575 589 559 602T542 642Q542
671 562 691T611 711Q637 711 653 698T669 658Q669 629 649 609T599 589Z" />
<glyph unicode="j" glyph-name="j" d="M122 -217Q76 -217 40 -203T-18 -173L15 -118Q37 -134 62 -144T121 -154Q187 -154 220 -117T267 -14L355 424H131L145 486H444L344 -15Q334 -64 317 -101T273 -164T209 -203T122 -217ZM415 589Q391 589 375 602T358 642Q358
671 378 691T427 711Q453 711 469 698T485 658Q485 629 465 609T415 589Z" />
<glyph unicode="k" glyph-name="k" d="M49 0L192 712H268L171 228H175L492 486H585L357 292L509 0H429L301 247L152 128L126 0H49Z" />
<glyph unicode="l" glyph-name="l" d="M325 -12Q268 -12 232 20T195 117Q195 142 202 171L303 650H141L154 712H391L277 168Q272 143 272 124Q272 86 292 69T346 52Q370 52 392 58T441 79L460 20Q428 4 395 -4T325 -12Z" />
<glyph unicode="m" glyph-name="m" d="M0 0L97 486H156L149 420H152Q181 457 213 477T283 498Q317 498 335 480T356 419Q391 462 425 480T492 498Q527 498 547 478T568 413Q568 400 567 388T562 358L490 0H414L484 348Q486 360 487 369T488 386Q488 411 480 421T454
432Q428 432 404 412T353 352L282 0H208L280 348Q282 360 283 369T284 386Q284 411 275 421T249 432Q221 432 198 412T145 352L76 0H0Z" />
<glyph unicode="n" glyph-name="n" d="M36 0L133 486H195L183 387H187Q209 409 233 429T285 464T342 489T405 498Q470 498 500 465T530 377Q530 356 528 337T521 297L461 0H384L442 289Q451 326 451 357Q451 393 432 412T374 432Q325 432 276 401T175 314L112 0H36Z" />
<glyph unicode="o" glyph-name="o" d="M250 -12Q202 -12 164 3T100 47T60 114T46 201Q46 265 69 319T130 413T219 475T326 498Q374 498 411 483T475 439T515 372T529 285Q529 221 506 167T445 73T356 11T250 -12ZM255 52Q294 52 329 70T392 119T435 191T452 280Q452
352 418 393T320 434Q281 434 246 416T183 367T140 295T124 206Q124 135 158 94T255 52Z" />
<glyph unicode="p" glyph-name="p" d="M-5 -205L133 486H196L188 411H191Q229 446 274 472T371 498Q447 498 492 449T537 305Q537 239 518 181T463 81T379 13T270 -12Q224 -12 185 7T123 58H120L102 -46L71 -205H-5ZM265 52Q307 52 342 71T403 124T443 201T458
294Q458 365 428 399T345 434Q308 434 264 410T181 340L137 122Q163 84 196 68T265 52Z" />
<glyph unicode="q" glyph-name="q" d="M339 -205L372 -44Q373 -41 376 -25T384 10T394 48T402 74H398Q360 35 313 12T218 -12Q143 -12 98 35T52 174Q52 239 73 298T130 401T214 472T319 498Q371 498 409 478T468 425H472L492 486H553L415 -205H339ZM242 52Q282
52 325 76T409 146L453 362Q428 400 396 417T329 434Q287 434 251 414T189 359T147 280T131 186Q131 117 161 85T242 52Z" />
<glyph unicode="r" glyph-name="r" d="M97 0L194 486H257L236 347H240Q260 378 284 405T337 453T395 486T457 498Q519 498 555 473L525 407Q506 419 487 423T444 428Q387 428 331 380T224 253L173 0H97Z" />
<glyph unicode="s" glyph-name="s" d="M270 -12Q207 -12 149 12T55 77L99 126Q135 85 183 67T284 48Q335 48 368 66T402 125Q402 160 369 179T274 218Q198 244 163 276T128 360Q128 395 142 421T182 464T240 489T310 498Q380 498 431 474T513 419L470 372Q440
398 398 418T302 438Q254 438 228 420T201 369Q201 335 231 316T321 277Q355 265 383 253T432 224T463 187T475 135Q475 96 459 68T415 22T350 -4T270 -12Z" />
<glyph unicode="t" glyph-name="t" d="M307 -12Q230 -12 195 26T159 127Q159 143 161 158T167 190L215 424H74L85 481L231 486L273 642H336L304 486H544L531 424H291L242 188Q239 174 238 164T237 143Q237 97 261 75T327 52Q363 52 395 62T453 87L478 32Q446 12
402 0T307 -12Z" />
<glyph unicode="u" glyph-name="u" d="M182 -12Q116 -12 86 21T56 109Q56 130 58 149T65 189L125 486H201L143 197Q139 178 137 162T134 129Q134 93 153 74T211 54Q261 54 310 85T409 172L472 486H549L452 0H389L402 99H398Q376 78 352 58T300 23T244 -2T182 -12Z" />
<glyph unicode="v" glyph-name="v" d="M197 0L87 486H163L224 203Q232 168 238 132T252 60H256Q273 95 293 130T337 204L504 486H582L287 0H197Z" />
<glyph unicode="w" glyph-name="w" d="M58 0L46 486H122L125 199Q125 164 125 133T123 66H127Q140 101 151 133T178 200L290 460H368L378 200Q380 165 379 133T378 66H382Q396 101 407 132T432 199L548 486H622L419 0H322L316 250Q315 285 315 314T316 382H312Q305
362 300 346T289 315T277 284T264 250L158 0H58Z" />
<glyph unicode="x" glyph-name="x" d="M10 0L244 253L119 486H199L257 375Q258 372 264 360T277 334T289 308T296 292H300Q302 295 311 307T332 334T353 360T365 375L464 486H554L331 246L470 0H388L324 117Q323 120 317 132T303 158T289 184T280 201H275Q272
197 263 185T242 160T221 136T208 121L100 0H10Z" />
<glyph unicode="y" glyph-name="y" d="M33 -209Q-14 -209 -44 -191L-20 -136Q-8 -142 7 -146T38 -150Q60 -150 78 -145T113 -127T144 -96T178 -50L208 -2L87 486H161L225 214Q232 182 240 141T254 66H258Q275 99 298 140T340 214L503 486H583L252 -52Q228 -92
205 -121T156 -170T100 -199T33 -209Z" />
<glyph unicode="z" glyph-name="z" d="M34 0L42 46L422 425H113L126 486H536L528 440L149 62H476L463 0H34Z" />
<glyph unicode="{" glyph-name="braceleft" d="M310 -152Q253 -152 221 -131T189 -62Q189 -36 197 -2T216 68T235 135T244 187Q244 199 240 211T221 232T180 247T111 253L123 303Q169 303 198 310T246 328T272 353T283 382Q293 430 298 476T314 573Q331 651 373
679T481 708H583L574 663H491Q447 663 416 640T375 569Q367 526 360 481T345 389Q334 340 311 313T242 277V273Q276 268 290 248T304 202Q304 178 296 144T279 75T261 7T253 -48Q253 -78 275 -92T340 -107H421L411 -152H310Z" />
<glyph unicode="|" glyph-name="bar" d="M265 -250V750H335V-250H265Z" />
<glyph unicode="}" glyph-name="braceright" d="M9 -152L18 -107H101Q145 -107 176 -84T217 -13Q226 30 232 75T247 167Q258 216 281 243T350 279L351 283Q317 288 303 308T288 354Q288 378 296 412T313 481T331 549T339 604Q339 634 317 648T252 663H171L181
708H282Q339 708 371 687T403 618Q403 592 395 558T376 488T357 421T348 369Q348 357 352 345T371 324T412 309T481 303L469 253Q423 253 394 246T346 228T320 202T309 174Q299 126 294 80T278 -17Q261 -95 219 -123T111 -152H9Z" />
<glyph unicode="~" glyph-name="asciitilde" d="M388 258Q358 258 335 271T291 300T251 329T210 343Q187 343 167 326T128 257L78 278Q103 348 138 375T212 402Q242 402 265 389T309 360T349 331T390 317Q414 317 434 333T472 403L522 381Q496 311 461 285T388 258Z" />
<glyph unicode="&#xa0;" glyph-name="uni00A0" />
<glyph unicode="&#xa1;" glyph-name="exclamdown" d="M316 253L259 -91L243 -186H162L181 -91L263 253H316ZM333 497Q359 497 375 480T392 435Q392 400 368 374T309 348Q283 348 267 365T251 410Q251 445 274 471T333 497Z" />
<glyph unicode="&#xa2;" glyph-name="cent" d="M176 271Q176 216 200 183T267 139L338 483Q303 477 274 458T222 412T188 348T176 271ZM231 -36L253 73Q184 82 142 131T99 262Q99 325 119 375T173 463T254 521T351 548L373 653H420L399 548Q440 543 470 524T521
482L476 438Q459 457 438 470T386 485L315 137Q352 139 381 154T436 190L467 141Q434 112 392 94T302 72L280 -36H231Z" />
<glyph unicode="&#xa3;" glyph-name="sterling" d="M22 0L31 46Q116 83 155 139T194 262Q194 269 194 275T193 289H75L85 334L188 338Q186 364 183 390T180 439Q180 490 195 529T238 595T304 636T390 650Q448 650 488 625T555 561L503 521Q483 551 456 569T389
588Q328 588 290 551T252 433Q252 412 254 388T259 338H448L438 289H263Q264 285 264 281T264 273Q264 204 237 156T154 70V65H469L456 0H22Z" />
<glyph unicode="&#xa4;" glyph-name="currency" d="M65 84L24 128L123 211Q106 247 106 293Q106 339 122 378T167 448L101 531L152 575L220 488Q246 505 277 514T341 524Q370 524 397 515T444 488L546 574L584 527L482 442Q498 407 498 364Q498 319 482 279T437
208L505 120L455 78L385 170Q359 153 328 144T263 135Q234 135 208 143T162 169L65 84ZM274 193Q303 193 330 205T379 239T414 291T427 357Q427 408 402 438T331 468Q302 468 274 456T225 421T190 368T177 302Q177 252 201 223T274 193Z" />
<glyph unicode="&#xa5;" glyph-name="yen" d="M202 0L233 159H50L60 200H241L255 270H72L82 311H245L124 638H201L260 462Q271 429 282 394T303 323H306Q328 357 352 393T399 462L528 638H610L359 311H524L515 270H331L317 200H503L493 159H310L279 0H202Z" />
<glyph unicode="&#xa6;" glyph-name="brokenbar" d="M265 -250V190H335V-250H265ZM265 310V750H335V310H265Z" />
<glyph unicode="&#xa7;" glyph-name="section" d="M234 -58Q186 -58 143 -37T65 22L107 70Q133 40 166 21T235 2Q274 2 301 23T329 79Q329 98 321 113T298 140T264 163T224 186Q199 200 178 215T142 248T118 288T109 337Q109 390 141 425T220 481Q202 510 202
548Q202 578 213 603T245 646T293 674T354 684Q399 684 436 662T503 607L457 565Q436 591 411 607T352 624Q319 624 296 607T273 554Q273 519 299 497T368 450Q391 436 413 421T452 387T481 344T492 290Q492 232 463 200T385 145Q399 119 399 87Q399 54 387 27T352
-19T300 -48T234 -58ZM268 241Q291 227 312 214T351 186Q384 199 403 219T423 278Q423 299 416 315T395 345T365 370T329 394Q309 406 290 418T254 443Q222 429 200 407T177 349Q177 313 199 290T268 241Z" />
<glyph unicode="&#xa8;" glyph-name="dieresis" d="M267 589Q248 589 236 600T224 633Q224 658 240 675T280 693Q299 693 311 681T323 648Q323 623 307 606T267 589ZM453 589Q434 589 422 600T410 633Q410 658 426 675T466 693Q485 693 497 681T509 648Q509 623
493 606T453 589Z" />
<glyph unicode="&#xa9;" glyph-name="copyright" d="M235 -11Q187 -11 148 7T82 58T40 139T25 246Q25 336 51 411T124 540T234 624T370 653Q418 653 457 636T523 585T566 505T581 400Q581 310 555 235T483 105T373 20T235 -11ZM243 30Q304 30 357 58T451 135T513
250T536 395Q536 444 525 484T491 553T436 597T361 613Q300 613 247 586T155 510T93 395T70 250Q70 149 115 90T243 30ZM280 129Q223 129 189 169T154 280Q154 334 171 377T216 451T281 498T356 514Q392 514 415 499T455 459L418 427Q404 447 389 455T351 464Q325
464 301 451T258 413T228 355T216 283Q216 235 235 209T291 182Q319 181 339 192T380 220L405 180Q381 158 349 144T280 129Z" />
<glyph unicode="&#xaa;" glyph-name="ordfeminine" d="M283 387Q234 387 206 418T177 513Q177 562 192 601T234 667T293 709T363 724Q391 724 412 714T452 685H454L465 716H513L449 395H399L402 433H400Q377 414 348 401T283 387ZM311 436Q334 436 358 447T407
479L438 643Q420 660 403 667T363 674Q339 674 317 663T278 632T250 584T239 522Q239 481 257 459T311 436Z" />
<glyph unicode="&#xab;" glyph-name="guillemotleft" d="M446 52L327 222L339 286L523 449L553 415L402 247L488 82L446 52ZM419 52L300 222L312 286L496 449L526 415L375 247L461 82L419 52Z" />
<glyph unicode="&#xac;" glyph-name="logicalnot" d="M451 105V301H87V359H513V105H451Z" />
<glyph unicode="&#xad;" glyph-name="uni00AD" d="M87 301V359H513V301H87Z" />
<glyph unicode="&#xae;" glyph-name="registered" d="M311 320Q277 320 249 331T201 364T169 414T158 480Q158 531 175 573T224 647T297 695T389 713Q422 713 450 702T498 669T529 618T541 552Q541 501 524 459T477 386T404 338T311 320ZM318 354Q357 354 391
368T450 409T489 470T503 547Q503 610 470 645T382 680Q343 680 309 665T250 624T210 562T195 485Q195 424 228 389T318 354ZM361 590H331L317 517H344Q369 517 383 528T397 561Q397 574 389 582T361 590ZM258 417L298 621H373Q400 621 419 609T439 564Q439 539
425 521T385 494L419 417H377L348 488H343H311L297 417H258Z" />
<glyph unicode="&#xaf;" glyph-name="overscore" d="M231 601L241 655H496L486 601H231Z" />
<glyph unicode="&#xb0;" glyph-name="degree" d="M323 432Q280 432 251 459T221 535Q221 569 233 597T266 644T314 674T372 685Q417 685 445 658T474 581Q474 547 462 520T430 473T382 443T323 432ZM331 475Q351 475 368 483T398 504T418 536T426 576Q426 606
411 624T365 643Q345 643 328 635T297 613T277 581T270 542Q270 513 286 494T331 475Z" />
<glyph unicode="&#xb1;" glyph-name="plusminus" d="M269 125V305H87V363H269V555H331V363H513V305H331V125H269ZM87 0V59H513V0H87Z" />
<glyph unicode="&#xb2;" glyph-name="two.sups" d="M182 395L189 433Q250 476 294 510T366 573T407 629T420 683Q420 712 404 728T356 745Q334 745 314 732T275 698L240 734Q268 761 297 779T365 797Q419 797 450 769T481 692Q481 661 469 632T432 574T371 514T286
446H449L439 395H182Z" />
<glyph unicode="&#xb3;" glyph-name="three.sups" d="M316 383Q267 383 233 407T181 463L223 491Q237 465 258 449T313 432Q348 432 373 450T398 503Q398 533 373 554T291 575L300 616Q333 616 356 623T393 641T413 665T419 693Q419 718 403 733T358 748Q317 748
275 716L249 757Q278 778 307 787T369 797Q418 797 449 772T480 701Q480 664 456 636T389 593Q423 580 440 556T457 505Q457 476 446 453T415 415T370 391T316 383Z" />
<glyph unicode="&#xb4;" glyph-name="acute" d="M328 579L293 624L461 777L508 717L328 579Z" />
<glyph unicode="&#xb5;" glyph-name="uni00B5" d="M-10 -187L125 486H201L141 194Q127 125 143 90T214 54Q264 54 311 84T408 169L472 486H548Q539 446 530 401T511 312T492 226T477 152T466 100T462 76Q462 51 484 51Q488 51 491 51T502 53L501 -5Q492 -8 481
-10T455 -12Q417 -12 405 13T401 99H397Q355 53 308 22T200 -10Q168 -10 144 0T106 46Q98 7 93 -23T83 -79T74 -130T66 -187H-10Z" />
<glyph unicode="&#xb6;" glyph-name="paragraph" d="M311 227Q266 227 226 238T156 272T108 327T90 403Q90 467 113 515T174 594T262 640T364 656H417L330 227H311ZM321 -80L468 656H544L398 -80H321Z" />
<glyph unicode="&#xb7;" glyph-name="middot" d="M275 263Q246 263 229 282T212 331Q212 350 219 367T238 397T266 418T302 426Q331 426 348 407T365 357Q365 339 358 322T339 292T311 271T275 263Z" />
<glyph unicode="&#xb8;" glyph-name="cedilla" d="M105 -226L104 -187Q164 -185 192 -171T222 -133Q223 -114 207 -104T153 -90L217 7H271L226 -65Q262 -74 275 -88T286 -128Q282 -176 234 -200T105 -226Z" />
<glyph unicode="&#xb9;" glyph-name="one.sups" d="M177 395L186 446H308L360 707H256L263 746Q306 751 334 759T388 785H435L367 446H482L472 395H177Z" />
<glyph unicode="&#xba;" glyph-name="ordmasculine" d="M312 387Q256 387 220 422T183 521Q183 569 199 606T242 670T303 710T376 724Q433 724 469 689T505 588Q505 540 489 503T447 440T385 401T312 387ZM320 437Q347 437 369 449T408 481T434 528T443 585Q443
627 424 651T369 675Q343 675 320 663T280 630T254 582T244 525Q244 483 264 460T320 437Z" />
<glyph unicode="&#xbb;" glyph-name="guillemotright" d="M324 53L294 87L445 255L359 420L402 450L520 280L508 216L324 53ZM297 53L267 87L418 255L332 420L375 450L493 280L481 216L297 53Z" />
<glyph unicode="&#xbc;" glyph-name="onequarter" d="M88 333L134 566H53L61 605Q95 610 116 618T160 638H208L147 333H88ZM8 29L-28 72L192 262L217 233L8 29ZM393 390L368 418L576 621L613 578L393 390ZM407 0L422 74H258L264 103L429 317L466 295L326 115H431L447
195H499L483 115H532L523 74H474L459 0H407Z" />
<glyph unicode="&#xbd;" glyph-name="onehalf" d="M88 333L134 566H53L61 605Q95 610 116 618T160 638H208L147 333H88ZM8 29L-28 72L192 262L217 233L8 29ZM393 390L368 418L576 621L613 578L393 390ZM266 0L273 34Q320 67 355 93T414 141T450 183T462 225Q462
268 417 268Q392 268 371 255T332 224L301 256Q324 282 357 299T431 317Q473 317 498 296T523 234Q523 208 512 185T481 140T431 96T366 48H521L511 0H266Z" />
<glyph unicode="&#xbe;" glyph-name="threequarters" d="M111 321Q68 321 41 337T-4 377L26 410Q43 389 62 377T111 365Q140 365 160 379T180 421Q180 446 159 458T91 470L98 506Q143 506 168 522T193 565Q193 585 181 594T145 604Q125 604 105 595T67 570L42
602Q64 623 96 636T162 650Q201 650 226 632T252 577Q252 544 231 522T171 490Q201 484 219 467T237 418Q237 395 227 377T200 347T160 328T111 321ZM8 29L-28 72L192 262L217 233L8 29ZM393 390L368 418L576 621L613 578L393 390ZM407 0L422 74H258L264 103L429
317L466 295L326 115H431L447 195H499L483 115H532L523 74H474L459 0H407Z" />
<glyph unicode="&#xbf;" glyph-name="questiondown" d="M349 254Q349 221 338 195T310 146T272 106T228 71Q208 56 191 42T161 14T141 -17T133 -54Q133 -88 154 -110T222 -132Q265 -132 296 -114T358 -63L401 -102Q365 -145 318 -170T209 -196Q138 -196 97 -162T56
-70Q56 -37 67 -12T97 35T138 74T184 110Q205 127 223 142T254 173T275 209T284 254H349ZM352 498Q378 498 394 481T411 436Q411 401 387 375T328 349Q302 349 286 366T270 411Q270 446 293 472T352 498Z" />
<glyph unicode="&#xc0;" glyph-name="Agrave" d="M256 379L198 265H397L386 377Q381 430 376 484T366 591H362Q334 537 309 486T256 379ZM-23 0L333 656H422L503 0H423L403 205H167L62 0H-23ZM401 693L267 820L322 870L444 730L401 693Z" />
<glyph unicode="&#xc1;" glyph-name="Aacute" d="M256 379L198 265H397L386 377Q381 430 376 484T366 591H362Q334 537 309 486T256 379ZM-23 0L333 656H422L503 0H423L403 205H167L62 0H-23ZM357 703L327 747L492 863L529 803L357 703Z" />
<glyph unicode="&#xc2;" glyph-name="Acircumflex" d="M256 379L198 265H397L386 377Q381 430 376 484T366 591H362Q334 537 309 486T256 379ZM-23 0L333 656H422L503 0H423L403 205H167L62 0H-23ZM261 699L228 727L358 846H445L533 725L495 700L399 797H395L261 699Z" />
<glyph unicode="&#xc3;" glyph-name="Atilde" d="M256 379L198 265H397L386 377Q381 430 376 484T366 591H362Q334 537 309 486T256 379ZM-23 0L333 656H422L503 0H423L403 205H167L62 0H-23ZM454 709Q428 709 411 720T380 744T353 769T323 781Q283 781 263 714L209
718Q221 777 254 809T332 841Q358 841 375 830T406 805T433 780T463 769Q503 769 523 836L577 832Q565 772 532 741T454 709Z" />
<glyph unicode="&#xc4;" glyph-name="Adieresis" d="M256 379L198 265H397L386 377Q381 430 376 484T366 591H362Q334 537 309 486T256 379ZM-23 0L333 656H422L503 0H423L403 205H167L62 0H-23ZM293 715Q276 715 265 725T253 755Q253 777 268 793T303 810Q320
810 331 800T343 769Q343 748 329 732T293 715ZM479 715Q461 715 450 725T439 755Q439 777 453 793T489 810Q506 810 517 800T529 769Q529 748 515 732T479 715Z" />
<glyph unicode="&#xc5;" glyph-name="Aring" d="M256 379L198 265H397L386 377Q381 430 376 484T366 591H362Q334 537 309 486T256 379ZM-23 0L333 656H422L503 0H423L403 205H167L62 0H-23ZM387 700Q352 700 326 719T300 779Q300 799 308 817T331 848T364 870T406
878Q441 878 467 859T493 799Q493 757 463 729T387 700ZM389 736Q412 736 429 753T447 795Q447 816 436 829T404 842Q381 842 364 825T346 782Q346 761 357 749T389 736Z" />
<glyph unicode="&#xc6;" glyph-name="AE" d="M243 380L171 258H309L376 596H371Q339 541 307 488T243 380ZM-62 0L337 656H649L636 591H445L402 379H556L543 314H389L340 66H541L528 0H257L296 197H135L19 0H-62Z" />
<glyph unicode="&#xc7;" glyph-name="Ccedilla" d="M310 -12Q254 -12 211 7T138 62T93 145T77 253Q77 330 101 404T170 537T277 632T416 668Q473 668 513 641T578 571L523 530Q503 563 477 582T412 601Q353 601 306 570T226 490T175 381T157 260Q157 215 166 178T196
113T248 71T324 55Q362 55 396 71T463 114L499 64Q462 32 416 10T310 -12ZM158 -226L157 -187Q217 -185 245 -171T275 -133Q276 -114 260 -104T206 -90L270 7H324L279 -65Q315 -74 328 -88T339 -128Q335 -176 287 -200T158 -226Z" />
<glyph unicode="&#xc8;" glyph-name="Egrave" d="M60 0L192 656H595L582 591H255L213 378H486L473 312H201L150 66H486L473 0H60ZM435 693L301 820L356 870L478 730L435 693Z" />
<glyph unicode="&#xc9;" glyph-name="Eacute" d="M60 0L192 656H595L582 591H255L213 378H486L473 312H201L150 66H486L473 0H60ZM391 703L361 747L526 863L563 803L391 703Z" />
<glyph unicode="&#xca;" glyph-name="Ecircumflex" d="M60 0L192 656H595L582 591H255L213 378H486L473 312H201L150 66H486L473 0H60ZM295 699L262 727L392 846H479L567 725L529 700L433 797H429L295 699Z" />
<glyph unicode="&#xcb;" glyph-name="Edieresis" d="M60 0L192 656H595L582 591H255L213 378H486L473 312H201L150 66H486L473 0H60ZM327 715Q310 715 299 725T287 755Q287 777 302 793T337 810Q354 810 365 800T377 769Q377 748 363 732T327 715ZM513 715Q495
715 484 725T473 755Q473 777 487 793T523 810Q540 810 551 800T563 769Q563 748 549 732T513 715Z" />
<glyph unicode="&#xcc;" glyph-name="Igrave" d="M35 0L49 66H211L316 591H152L167 656H573L559 591H394L288 66H454L439 0H35ZM401 693L267 820L322 870L444 730L401 693Z" />
<glyph unicode="&#xcd;" glyph-name="Iacute" d="M35 0L49 66H211L316 591H152L167 656H573L559 591H394L288 66H454L439 0H35ZM357 703L327 747L492 863L529 803L357 703Z" />
<glyph unicode="&#xce;" glyph-name="Icircumflex" d="M35 0L49 66H211L316 591H152L167 656H573L559 591H394L288 66H454L439 0H35ZM261 699L228 727L358 846H445L533 725L495 700L399 797H395L261 699Z" />
<glyph unicode="&#xcf;" glyph-name="Idieresis" d="M35 0L49 66H211L316 591H152L167 656H573L559 591H394L288 66H454L439 0H35ZM293 715Q276 715 265 725T253 755Q253 777 268 793T303 810Q320 810 331 800T343 769Q343 748 329 732T293 715ZM479 715Q461 715
450 725T439 755Q439 777 453 793T489 810Q506 810 517 800T529 769Q529 748 515 732T479 715Z" />
<glyph unicode="&#xd0;" glyph-name="Eth" d="M37 0L101 318H24L38 370L112 374L168 656H299Q433 656 502 590T572 400Q572 311 548 237T477 111T365 29T214 0H37ZM127 64H214Q279 64 330 87T418 154T473 258T492 395Q492 490 443 541T296 593H233L189 374H334L320
318H178L127 64Z" />
<glyph unicode="&#xd1;" glyph-name="Ntilde" d="M25 0L156 656H235L369 234L406 99H410Q416 148 424 203T440 301L510 656H584L453 0H375L240 422L203 558H199Q192 508 185 454T168 351L99 0H25ZM454 709Q428 709 411 720T380 744T353 769T323 781Q283 781 263
714L209 718Q221 777 254 809T332 841Q358 841 375 830T406 805T433 780T463 769Q503 769 523 836L577 832Q565 772 532 741T454 709Z" />
<glyph unicode="&#xd2;" glyph-name="Ograve" d="M254 -12Q204 -12 165 6T98 59T56 141T41 247Q41 325 63 401T125 536T224 631T355 668Q405 668 444 650T511 597T552 515T567 409Q567 331 546 256T484 121T385 25T254 -12ZM261 55Q315 55 357 87T428 170T472
285T488 413Q488 500 454 550T348 601Q294 601 252 569T181 486T136 372T120 244Q120 156 154 106T261 55ZM401 693L267 820L322 870L444 730L401 693Z" />
<glyph unicode="&#xd3;" glyph-name="Oacute" d="M254 -12Q204 -12 165 6T98 59T56 141T41 247Q41 325 63 401T125 536T224 631T355 668Q405 668 444 650T511 597T552 515T567 409Q567 331 546 256T484 121T385 25T254 -12ZM261 55Q315 55 357 87T428 170T472
285T488 413Q488 500 454 550T348 601Q294 601 252 569T181 486T136 372T120 244Q120 156 154 106T261 55ZM357 703L327 747L492 863L529 803L357 703Z" />
<glyph unicode="&#xd4;" glyph-name="Ocircumflex" d="M254 -12Q204 -12 165 6T98 59T56 141T41 247Q41 325 63 401T125 536T224 631T355 668Q405 668 444 650T511 597T552 515T567 409Q567 331 546 256T484 121T385 25T254 -12ZM261 55Q315 55 357 87T428 170T472
285T488 413Q488 500 454 550T348 601Q294 601 252 569T181 486T136 372T120 244Q120 156 154 106T261 55ZM261 699L228 727L358 846H445L533 725L495 700L399 797H395L261 699Z" />
<glyph unicode="&#xd5;" glyph-name="Otilde" d="M254 -12Q204 -12 165 6T98 59T56 141T41 247Q41 325 63 401T125 536T224 631T355 668Q405 668 444 650T511 597T552 515T567 409Q567 331 546 256T484 121T385 25T254 -12ZM261 55Q315 55 357 87T428 170T472
285T488 413Q488 500 454 550T348 601Q294 601 252 569T181 486T136 372T120 244Q120 156 154 106T261 55ZM454 709Q428 709 411 720T380 744T353 769T323 781Q283 781 263 714L209 718Q221 777 254 809T332 841Q358 841 375 830T406 805T433 780T463 769Q503 769
523 836L577 832Q565 772 532 741T454 709Z" />
<glyph unicode="&#xd6;" glyph-name="Odieresis" d="M254 -12Q204 -12 165 6T98 59T56 141T41 247Q41 325 63 401T125 536T224 631T355 668Q405 668 444 650T511 597T552 515T567 409Q567 331 546 256T484 121T385 25T254 -12ZM261 55Q315 55 357 87T428 170T472
285T488 413Q488 500 454 550T348 601Q294 601 252 569T181 486T136 372T120 244Q120 156 154 106T261 55ZM293 715Q276 715 265 725T253 755Q253 777 268 793T303 810Q320 810 331 800T343 769Q343 748 329 732T293 715ZM479 715Q461 715 450 725T439 755Q439
777 453 793T489 810Q506 810 517 800T529 769Q529 748 515 732T479 715Z" />
<glyph unicode="&#xd7;" glyph-name="multiply" d="M145 127L103 171L259 330L103 489L145 532L300 371L455 532L497 489L341 330L497 171L455 127L300 288L145 127Z" />
<glyph unicode="&#xd8;" glyph-name="Oslash" d="M254 -12Q207 -12 170 4T106 49L34 -34L-14 6L70 103Q41 164 41 247Q41 325 63 401T125 536T224 631T355 668Q448 668 504 606L576 690L625 650L539 551Q567 490 567 409Q567 331 546 256T484 121T385 25T254 -12ZM118
244Q118 204 126 169L455 550Q418 601 348 601Q294 601 252 569T180 486T134 372T118 244ZM261 55Q315 55 357 87T429 170T474 285T490 413Q490 433 489 451T483 485L154 105Q191 55 261 55Z" />
<glyph unicode="&#xd9;" glyph-name="Ugrave" d="M255 -12Q162 -12 113 41T64 186Q64 230 74 279L149 656H227L152 277Q147 254 144 234T141 195Q141 128 172 92T265 55Q293 55 318 65T365 98T404 159T432 252L512 656H588L506 244Q492 172 468 123T411 44T340
1T255 -12ZM401 693L267 820L322 870L444 730L401 693Z" />
<glyph unicode="&#xda;" glyph-name="Uacute" d="M255 -12Q162 -12 113 41T64 186Q64 230 74 279L149 656H227L152 277Q147 254 144 234T141 195Q141 128 172 92T265 55Q293 55 318 65T365 98T404 159T432 252L512 656H588L506 244Q492 172 468 123T411 44T340
1T255 -12ZM357 703L327 747L492 863L529 803L357 703Z" />
<glyph unicode="&#xdb;" glyph-name="Ucircumflex" d="M255 -12Q162 -12 113 41T64 186Q64 230 74 279L149 656H227L152 277Q147 254 144 234T141 195Q141 128 172 92T265 55Q293 55 318 65T365 98T404 159T432 252L512 656H588L506 244Q492 172 468 123T411 44T340
1T255 -12ZM261 699L228 727L358 846H445L533 725L495 700L399 797H395L261 699Z" />
<glyph unicode="&#xdc;" glyph-name="Udieresis" d="M255 -12Q162 -12 113 41T64 186Q64 230 74 279L149 656H227L152 277Q147 254 144 234T141 195Q141 128 172 92T265 55Q293 55 318 65T365 98T404 159T432 252L512 656H588L506 244Q492 172 468 123T411 44T340
1T255 -12ZM293 715Q276 715 265 725T253 755Q253 777 268 793T303 810Q320 810 331 800T343 769Q343 748 329 732T293 715ZM479 715Q461 715 450 725T439 755Q439 777 453 793T489 810Q506 810 517 800T529 769Q529 748 515 732T479 715Z" />
<glyph unicode="&#xdd;" glyph-name="Yacute" d="M199 0L246 229L109 657H189L250 455Q262 414 274 371T295 292H299Q309 308 321 328T347 369T375 413T404 455L544 657H626L321 221L276 0H199ZM601 703L571 747L736 863L773 803L601 703Z" />
<glyph unicode="&#xde;" glyph-name="Thorn" d="M44 0L175 656H253L231 543H353Q398 543 434 534T497 506T537 456T552 382Q552 322 531 278T471 206T380 164T264 150H151L122 0H44ZM165 213H267Q370 213 422 253T475 372Q475 429 438 454T330 480H217L165 213Z" />
<glyph unicode="&#xdf;" glyph-name="germandbls" d="M353 -12Q315 -12 278 0T208 39L242 93Q268 71 293 60T353 48Q375 48 394 54T427 72T450 99T459 133Q459 157 447 175T418 209T380 239T342 269T312 305T300 350Q300 389 321 415T368 466T415 517T437 584Q437
619 418 640T356 662Q301 662 263 621T208 501L109 0H32L136 518Q155 612 212 668T359 724Q392 724 420 716T468 692T500 650T512 592Q512 561 502 538T477 495T444 461T411 430T386 399T376 363Q376 344 387 330T416 301T454 272T491 239T520 197T532 141Q532
109 519 81T483 33T427 0T353 -12Z" />
<glyph unicode="&#xe0;" glyph-name="agrave" d="M219 -12Q143 -12 98 35T52 174Q52 239 73 298T130 401T214 472T319 498Q371 498 409 478T468 425H472L491 486H553L456 0H393L401 74H397Q359 35 313 12T219 -12ZM242 52Q282 52 325 76T409 146L454 362Q429 400
397 417T329 434Q287 434 251 414T189 359T147 280T131 186Q131 117 161 85T242 52ZM404 570L272 734L338 783L452 606L404 570Z" />
<glyph unicode="&#xe1;" glyph-name="aacute" d="M219 -12Q143 -12 98 35T52 174Q52 239 73 298T130 401T214 472T319 498Q371 498 409 478T468 425H472L491 486H553L456 0H393L401 74H397Q359 35 313 12T219 -12ZM242 52Q282 52 325 76T409 146L454 362Q429 400
397 417T329 434Q287 434 251 414T189 359T147 280T131 186Q131 117 161 85T242 52ZM343 579L308 624L476 777L523 717L343 579Z" />
<glyph unicode="&#xe2;" glyph-name="acircumflex" d="M219 -12Q143 -12 98 35T52 174Q52 239 73 298T130 401T214 472T319 498Q371 498 409 478T468 425H472L491 486H553L456 0H393L401 74H397Q359 35 313 12T219 -12ZM242 52Q282 52 325 76T409 146L454 362Q429
400 397 417T329 434Q287 434 251 414T189 359T147 280T131 186Q131 117 161 85T242 52ZM247 568L216 602L354 740H437L526 599L487 568L393 684H389L247 568Z" />
<glyph unicode="&#xe3;" glyph-name="atilde" d="M219 -12Q143 -12 98 35T52 174Q52 239 73 298T130 401T214 472T319 498Q371 498 409 478T468 425H472L491 486H553L456 0H393L401 74H397Q359 35 313 12T219 -12ZM242 52Q282 52 325 76T409 146L454 362Q429 400
397 417T329 434Q287 434 251 414T189 359T147 280T131 186Q131 117 161 85T242 52ZM449 577Q423 577 407 590T379 619T353 648T320 662Q297 662 283 640T261 582L206 585Q218 645 247 683T326 721Q352 721 368 708T397 679T423 650T455 636Q478 636 492 658T514
716L569 712Q558 654 529 616T449 577Z" />
<glyph unicode="&#xe4;" glyph-name="adieresis" d="M219 -12Q143 -12 98 35T52 174Q52 239 73 298T130 401T214 472T319 498Q371 498 409 478T468 425H472L491 486H553L456 0H393L401 74H397Q359 35 313 12T219 -12ZM242 52Q282 52 325 76T409 146L454 362Q429
400 397 417T329 434Q287 434 251 414T189 359T147 280T131 186Q131 117 161 85T242 52ZM282 589Q263 589 251 600T239 633Q239 658 255 675T295 693Q314 693 326 681T338 648Q338 623 322 606T282 589ZM468 589Q449 589 437 600T425 633Q425 658 441 675T481 693Q500
693 512 681T524 648Q524 623 508 606T468 589Z" />
<glyph unicode="&#xe5;" glyph-name="aring" d="M219 -12Q143 -12 98 35T52 174Q52 239 73 298T130 401T214 472T319 498Q371 498 409 478T468 425H472L491 486H553L456 0H393L401 74H397Q359 35 313 12T219 -12ZM242 52Q282 52 325 76T409 146L454 362Q429 400
397 417T329 434Q287 434 251 414T189 359T147 280T131 186Q131 117 161 85T242 52ZM372 556Q331 556 304 577T277 638Q277 660 285 680T310 716T347 740T395 749Q437 749 464 728T491 667Q491 644 482 624T458 589T420 565T372 556ZM377 592Q403 592 421 613T439
664Q439 685 426 699T390 713Q365 713 347 692T329 641Q329 619 341 606T377 592Z" />
<glyph unicode="&#xe6;" glyph-name="ae" d="M88 -12Q36 -12 7 17T-22 97Q-22 187 51 235T268 306Q282 363 265 399T199 436Q166 436 135 423T79 392L51 440Q80 461 123 479T217 498Q262 498 291 473T327 405Q359 453 400 475T485 498Q515 498 536 486T572 453T592
405T599 346Q599 301 592 271T578 224H314Q312 210 311 197T310 169Q310 115 333 82T405 49Q435 49 461 58T514 86L538 36Q512 16 474 2T396 -12Q342 -12 310 13T261 75Q218 30 174 9T88 -12ZM109 49Q139 49 177 69T248 126Q247 132 247 138T246 151Q246 178 248
201T255 254Q154 235 102 203T50 112Q50 80 66 65T109 49ZM470 437Q446 437 424 426T384 394T351 345T326 283H530Q536 314 536 343Q536 387 521 412T470 437Z" />
<glyph unicode="&#xe7;" glyph-name="ccedilla" d="M291 -12Q243 -12 202 1T131 42T84 109T67 202Q67 268 91 322T156 416T250 476T360 498Q424 498 470 472T543 411L494 367Q467 401 433 417T350 434Q312 434 275 417T209 369T162 298T144 211Q144 171 156 141T189
92T238 62T301 52Q344 52 383 71T456 119L487 67Q449 32 398 10T291 -12ZM139 -226L138 -187Q198 -185 226 -171T256 -133Q257 -114 241 -104T187 -90L251 7H305L260 -65Q296 -74 309 -88T320 -128Q316 -176 268 -200T139 -226Z" />
<glyph unicode="&#xe8;" glyph-name="egrave" d="M270 -12Q175 -12 119 41T63 198Q63 264 85 319T146 413T235 475T340 498Q385 498 419 484T477 445T513 386T525 311Q525 285 521 260T512 224H140Q139 219 139 214T139 202Q139 128 179 89T285 49Q333 49 375
67T451 112L480 60Q443 31 389 10T270 -12ZM336 437Q308 437 280 427T228 396T183 348T152 284H450Q453 299 453 314Q453 371 422 404T336 437ZM397 570L265 734L331 783L445 606L397 570Z" />
<glyph unicode="&#xe9;" glyph-name="eacute" d="M270 -12Q175 -12 119 41T63 198Q63 264 85 319T146 413T235 475T340 498Q385 498 419 484T477 445T513 386T525 311Q525 285 521 260T512 224H140Q139 219 139 214T139 202Q139 128 179 89T285 49Q333 49 375
67T451 112L480 60Q443 31 389 10T270 -12ZM336 437Q308 437 280 427T228 396T183 348T152 284H450Q453 299 453 314Q453 371 422 404T336 437ZM336 579L301 624L469 777L516 717L336 579Z" />
<glyph unicode="&#xea;" glyph-name="ecircumflex" d="M270 -12Q175 -12 119 41T63 198Q63 264 85 319T146 413T235 475T340 498Q385 498 419 484T477 445T513 386T525 311Q525 285 521 260T512 224H140Q139 219 139 214T139 202Q139 128 179 89T285 49Q333 49
375 67T451 112L480 60Q443 31 389 10T270 -12ZM336 437Q308 437 280 427T228 396T183 348T152 284H450Q453 299 453 314Q453 371 422 404T336 437ZM240 568L209 602L347 740H430L519 599L480 568L386 684H382L240 568Z" />
<glyph unicode="&#xeb;" glyph-name="edieresis" d="M270 -12Q175 -12 119 41T63 198Q63 264 85 319T146 413T235 475T340 498Q385 498 419 484T477 445T513 386T525 311Q525 285 521 260T512 224H140Q139 219 139 214T139 202Q139 128 179 89T285 49Q333 49 375
67T451 112L480 60Q443 31 389 10T270 -12ZM336 437Q308 437 280 427T228 396T183 348T152 284H450Q453 299 453 314Q453 371 422 404T336 437ZM275 589Q256 589 244 600T232 633Q232 658 248 675T288 693Q307 693 319 681T331 648Q331 623 315 606T275 589ZM461
589Q442 589 430 600T418 633Q418 658 434 675T474 693Q493 693 505 681T517 648Q517 623 501 606T461 589Z" />
<glyph unicode="&#xec;" glyph-name="igrave" d="M347 -12Q289 -12 253 19T216 110Q216 133 224 163L282 424H104L117 486H371L298 156Q296 147 295 140T294 124Q294 86 315 69T369 52Q392 52 414 59T462 78L480 20Q449 6 418 -3T347 -12ZM627 570L495 734L561
783L675 606L627 570Z" />
<glyph unicode="&#xed;" glyph-name="iacute" d="M347 -12Q289 -12 253 19T216 110Q216 133 224 163L282 424H104L117 486H371L298 156Q296 147 295 140T294 124Q294 86 315 69T369 52Q392 52 414 59T462 78L480 20Q449 6 418 -3T347 -12ZM566 579L531 624L699
777L746 717L566 579Z" />
<glyph unicode="&#xee;" glyph-name="icircumflex" d="M347 -12Q289 -12 253 19T216 110Q216 133 224 163L282 424H104L117 486H371L298 156Q296 147 295 140T294 124Q294 86 315 69T369 52Q392 52 414 59T462 78L480 20Q449 6 418 -3T347 -12ZM470 568L439 602L577
740H660L749 599L710 568L616 684H612L470 568Z" />
<glyph unicode="&#xef;" glyph-name="idieresis" d="M347 -12Q289 -12 253 19T216 110Q216 133 224 163L282 424H104L117 486H371L298 156Q296 147 295 140T294 124Q294 86 315 69T369 52Q392 52 414 59T462 78L480 20Q449 6 418 -3T347 -12ZM505 589Q486 589
474 600T462 633Q462 658 478 675T518 693Q537 693 549 681T561 648Q561 623 545 606T505 589ZM691 589Q672 589 660 600T648 633Q648 658 664 675T704 693Q723 693 735 681T747 648Q747 623 731 606T691 589Z" />
<glyph unicode="&#xf0;" glyph-name="eth" d="M239 -12Q197 -12 161 1T97 39T55 100T39 184Q39 242 60 290T117 373T201 427T306 446Q359 446 399 426T463 375Q458 436 440 484T389 571L238 500L212 550L348 613Q306 650 251 678L285 734Q359 699 415 645L564
714L589 664L454 601Q494 549 516 484T539 339Q539 258 518 193T458 83T364 13T239 -12ZM248 52Q296 52 334 71T399 124T443 205T463 309Q435 351 397 369T316 387Q268 387 230 371T167 327T128 264T114 191Q114 126 151 89T248 52Z" />
<glyph unicode="&#xf1;" glyph-name="ntilde" d="M36 0L133 486H195L183 387H187Q209 409 233 429T285 464T342 489T405 498Q470 498 500 465T530 377Q530 356 528 337T521 297L461 0H384L442 289Q451 326 451 357Q451 393 432 412T374 432Q325 432 276 401T175
314L112 0H36ZM447 577Q421 577 405 590T377 619T351 648T318 662Q295 662 281 640T259 582L204 585Q216 645 245 683T324 721Q350 721 366 708T395 679T421 650T453 636Q476 636 490 658T512 716L567 712Q556 654 527 616T447 577Z" />
<glyph unicode="&#xf2;" glyph-name="ograve" d="M250 -12Q202 -12 164 3T100 47T60 114T46 201Q46 265 69 319T130 413T219 475T326 498Q374 498 411 483T475 439T515 372T529 285Q529 221 506 167T445 73T356 11T250 -12ZM255 52Q294 52 329 70T392 119T435
191T452 280Q452 352 418 393T320 434Q281 434 246 416T183 367T140 295T124 206Q124 135 158 94T255 52ZM389 570L257 734L323 783L437 606L389 570Z" />
<glyph unicode="&#xf3;" glyph-name="oacute" d="M250 -12Q202 -12 164 3T100 47T60 114T46 201Q46 265 69 319T130 413T219 475T326 498Q374 498 411 483T475 439T515 372T529 285Q529 221 506 167T445 73T356 11T250 -12ZM255 52Q294 52 329 70T392 119T435
191T452 280Q452 352 418 393T320 434Q281 434 246 416T183 367T140 295T124 206Q124 135 158 94T255 52ZM328 579L293 624L461 777L508 717L328 579Z" />
<glyph unicode="&#xf4;" glyph-name="ocircumflex" d="M250 -12Q202 -12 164 3T100 47T60 114T46 201Q46 265 69 319T130 413T219 475T326 498Q374 498 411 483T475 439T515 372T529 285Q529 221 506 167T445 73T356 11T250 -12ZM255 52Q294 52 329 70T392 119T435
191T452 280Q452 352 418 393T320 434Q281 434 246 416T183 367T140 295T124 206Q124 135 158 94T255 52ZM232 568L201 602L339 740H422L511 599L472 568L378 684H374L232 568Z" />
<glyph unicode="&#xf5;" glyph-name="otilde" d="M250 -12Q202 -12 164 3T100 47T60 114T46 201Q46 265 69 319T130 413T219 475T326 498Q374 498 411 483T475 439T515 372T529 285Q529 221 506 167T445 73T356 11T250 -12ZM255 52Q294 52 329 70T392 119T435
191T452 280Q452 352 418 393T320 434Q281 434 246 416T183 367T140 295T124 206Q124 135 158 94T255 52ZM434 577Q408 577 392 590T364 619T338 648T305 662Q282 662 268 640T246 582L191 585Q203 645 232 683T311 721Q337 721 353 708T382 679T408 650T440 636Q463
636 477 658T499 716L554 712Q543 654 514 616T434 577Z" />
<glyph unicode="&#xf6;" glyph-name="odieresis" d="M250 -12Q202 -12 164 3T100 47T60 114T46 201Q46 265 69 319T130 413T219 475T326 498Q374 498 411 483T475 439T515 372T529 285Q529 221 506 167T445 73T356 11T250 -12ZM255 52Q294 52 329 70T392 119T435
191T452 280Q452 352 418 393T320 434Q281 434 246 416T183 367T140 295T124 206Q124 135 158 94T255 52ZM267 589Q248 589 236 600T224 633Q224 658 240 675T280 693Q299 693 311 681T323 648Q323 623 307 606T267 589ZM453 589Q434 589 422 600T410 633Q410 658
426 675T466 693Q485 693 497 681T509 648Q509 623 493 606T453 589Z" />
<glyph unicode="&#xf7;" glyph-name="divide" d="M300 458Q278 458 263 472T248 510Q248 533 263 547T300 561Q322 561 337 547T352 510Q352 486 337 472T300 458ZM300 98Q278 98 263 112T248 150Q248 173 263 187T300 201Q322 201 337 187T352 150Q352 126 337
112T300 98ZM87 301V359H513V301H87Z" />
<glyph unicode="&#xf8;" glyph-name="oslash" d="M250 -12Q165 -12 112 36L42 -30L-1 14L73 84Q60 109 53 138T46 201Q46 265 69 319T130 413T219 475T326 498Q410 498 463 450L533 516L576 472L502 402Q515 377 522 348T529 285Q529 221 506 167T445 73T356 11T250
-12ZM121 203Q121 165 131 138L412 403Q377 436 323 436Q281 436 244 418T180 367T137 293T121 203ZM252 50Q294 50 331 68T395 119T439 193T455 283Q455 301 453 318T445 349L163 84Q197 50 252 50Z" />
<glyph unicode="&#xf9;" glyph-name="ugrave" d="M182 -12Q116 -12 86 21T56 109Q56 130 58 149T65 189L125 486H201L143 197Q139 178 137 162T134 129Q134 93 153 74T211 54Q261 54 310 85T409 172L472 486H549L452 0H389L402 99H398Q376 78 352 58T300 23T244
-2T182 -12ZM644 570L512 734L578 783L692 606L644 570Z" />
<glyph unicode="&#xfa;" glyph-name="uacute" d="M182 -12Q116 -12 86 21T56 109Q56 130 58 149T65 189L125 486H201L143 197Q139 178 137 162T134 129Q134 93 153 74T211 54Q261 54 310 85T409 172L472 486H549L452 0H389L402 99H398Q376 78 352 58T300 23T244
-2T182 -12ZM583 579L548 624L716 777L763 717L583 579Z" />
<glyph unicode="&#xfb;" glyph-name="ucircumflex" d="M182 -12Q116 -12 86 21T56 109Q56 130 58 149T65 189L125 486H201L143 197Q139 178 137 162T134 129Q134 93 153 74T211 54Q261 54 310 85T409 172L472 486H549L452 0H389L402 99H398Q376 78 352 58T300
23T244 -2T182 -12ZM487 568L456 602L594 740H677L766 599L727 568L633 684H629L487 568Z" />
<glyph unicode="&#xfc;" glyph-name="udieresis" d="M182 -12Q116 -12 86 21T56 109Q56 130 58 149T65 189L125 486H201L143 197Q139 178 137 162T134 129Q134 93 153 74T211 54Q261 54 310 85T409 172L472 486H549L452 0H389L402 99H398Q376 78 352 58T300 23T244
-2T182 -12ZM522 589Q503 589 491 600T479 633Q479 658 495 675T535 693Q554 693 566 681T578 648Q578 623 562 606T522 589ZM708 589Q689 589 677 600T665 633Q665 658 681 675T721 693Q740 693 752 681T764 648Q764 623 748 606T708 589Z" />
<glyph unicode="&#xfd;" glyph-name="yacute" d="M33 -209Q-14 -209 -44 -191L-20 -136Q-8 -142 7 -146T38 -150Q60 -150 78 -145T113 -127T144 -96T178 -50L208 -2L87 486H161L225 214Q232 182 240 141T254 66H258Q275 99 298 140T340 214L503 486H583L252 -52Q228
-92 205 -121T156 -170T100 -199T33 -209ZM576 579L541 624L709 777L756 717L576 579Z" />
<glyph unicode="&#xfe;" glyph-name="thorn" d="M-5 -205L178 712H255L216 522L190 415H193Q230 449 276 473T370 498Q448 498 492 449T537 305Q537 239 518 181T463 81T379 13T270 -12Q224 -12 185 7T123 58H120L102 -46L71 -205H-5ZM265 52Q307 52 342 71T403
124T443 201T458 294Q458 365 428 399T345 434Q308 434 264 410T181 340L137 122Q163 84 196 68T265 52Z" />
<glyph unicode="&#xff;" glyph-name="ydieresis" d="M33 -209Q-14 -209 -44 -191L-20 -136Q-8 -142 7 -146T38 -150Q60 -150 78 -145T113 -127T144 -96T178 -50L208 -2L87 486H161L225 214Q232 182 240 141T254 66H258Q275 99 298 140T340 214L503 486H583L252
-52Q228 -92 205 -121T156 -170T100 -199T33 -209ZM515 589Q496 589 484 600T472 633Q472 658 488 675T528 693Q547 693 559 681T571 648Q571 623 555 606T515 589ZM701 589Q682 589 670 600T658 633Q658 658 674 675T714 693Q733 693 745 681T757 648Q757 623
741 606T701 589Z" />
<glyph unicode="&#x2013;" glyph-name="endash" d="M62 219L76 285H516L502 219H62Z" />
<glyph unicode="&#x2014;" glyph-name="emdash" d="M-18 219L-4 285H596L582 219H-18Z" />
<glyph unicode="&#x2018;" glyph-name="quoteleft" d="M331 373Q299 373 278 394T256 462Q256 503 271 540T314 607T382 661T471 698L483 654Q423 636 385 601T336 518Q347 522 362 522Q385 522 400 506T415 461Q415 424 391 399T331 373Z" />
<glyph unicode="&#x2019;" glyph-name="quoteright" d="M233 373L221 418Q281 436 318 471T367 554Q352 549 340 549Q317 549 302 565T287 611Q287 648 312 673T371 699Q403 699 424 677T446 610Q446 569 431 532T389 464T322 410T233 373Z" />
<glyph unicode="&#x201a;" glyph-name="quotesinglbase" d="M164 -202L152 -157Q212 -139 249 -104T298 -21Q283 -26 271 -26Q248 -26 233 -10T218 36Q218 73 243 98T302 124Q334 124 355 102T377 35Q377 -6 362 -43T320 -111T253 -165T164 -202Z" />
<glyph unicode="&#x201c;" glyph-name="quotedblleft" d="M473 373Q441 373 420 394T398 462Q398 503 413 540T456 607T524 661T613 698L625 654Q565 636 527 601T478 518Q489 522 504 522Q527 522 542 506T557 461Q557 424 533 399T473 373ZM446 373Q414 373
393 394T371 462Q371 503 386 540T429 607T497 661T586 698L598 654Q538 636 500 601T451 518Q462 522 477 522Q500 522 515 506T530 461Q530 424 506 399T446 373Z" />
<glyph unicode="&#x201d;" glyph-name="quotedblright" d="M375 373L363 418Q423 436 460 471T509 554Q494 549 482 549Q459 549 444 565T429 611Q429 648 454 673T513 699Q545 699 566 677T588 610Q588 569 573 532T531 464T464 410T375 373ZM348 373L336 418Q396
436 433 471T482 554Q467 549 455 549Q432 549 417 565T402 611Q402 648 427 673T486 699Q518 699 539 677T561 610Q561 569 546 532T504 464T437 410T348 373Z" />
<glyph unicode="&#x201e;" glyph-name="quotedblbase" d="M119 -202L107 -157Q167 -139 204 -104T253 -21Q238 -26 226 -26Q203 -26 188 -10T173 36Q173 73 198 98T257 124Q289 124 310 102T332 35Q332 -6 317 -43T275 -111T208 -165T119 -202ZM348 -202L336 -157Q396
-139 433 -104T482 -21Q467 -26 455 -26Q432 -26 417 -10T402 36Q402 73 427 98T486 124Q518 124 539 102T561 35Q561 -6 546 -43T504 -111T437 -165T348 -202Z" />
<glyph unicode="&#x2022;" glyph-name="bullet" d="M265 117Q239 117 217 125T178 149T152 187T142 237Q142 276 156 307T195 361T251 395T318 407Q370 407 405 375T440 287Q440 248 426 217T387 163T332 129T265 117Z" />
<glyph unicode="&#x2039;" glyph-name="guilsinglleft" d="M304 52L185 222L197 286L381 449L411 415L260 247L346 82L304 52Z" />
<glyph unicode="&#x203a;" glyph-name="guilsinglright" d="M182 53L152 87L303 255L217 420L260 450L378 280L366 216L182 53Z" />
</font>
</defs>
</svg>
